Torrent details for "Motorhead - This Is Motorhead (2021) (PBTHAL Vinyl 24-96) [FLAC] vtwin88cube"    Log in to bookmark

Loading...
Loading...
Torrent details
Cover
Download
Torrent rating (0 rated)
Controls:
Category:
Language:
English English
Total Size:
1.76 GB
Info Hash:
9b94b8bcbef48006bbe9721f697747a261306593
Added By:
Added:  
22-07-2021 05:19
Views:
281
Health:
Seeds:
16
Leechers:
3
Completed:
718

Similar torrents

Name 
DL
Uploader
Size 
S/L 
Added
-
422.53 MB
2,027
[25/4]
10/08/18 03:03
Uploaded by analogkid6103:_trusted_uploader::_sitefriend: Size 422.53 MBHealth [25/4]Added 10/08/18 03:03
-
6.58 MB
121
[17/0]
08/07/21 13:14
Uploaded by zakareya:_trusted_uploader::_sitefriend: Size 6.58 MBHealth [17/0]Added 08/07/21 13:14
-
203.21 MB
338
[16/0]
08/05/21 16:48
Uploaded by pmedia:_trusted_uploader::_sitefriend: Size 203.21 MBHealth [16/0]Added 08/05/21 16:48
-
793.09 MB
409
[9/0]
10/01/21 08:24
Uploaded by vtwin88cube:_trusted_uploader::_sitefriend: Size 793.09 MBHealth [9/0]Added 10/01/21 08:24
-
853.30 MB
463
[8/1]
10/01/21 08:10
Uploaded by vtwin88cube:_trusted_uploader::_sitefriend: Size 853.30 MBHealth [8/1]Added 10/01/21 08:10
-
938.39 MB
390
[6/1]
23/04/21 08:55
Uploaded by pmedia:_trusted_uploader::_sitefriend: Size 938.39 MBHealth [6/1]Added 23/04/21 08:55

Description
Motörhead
This Is Motörhead (2021)
FLAC LOSSLESS 24bit-96kHz
PBTHAL VINYL TRACkS


Choice cuts from 1977-1986.

Motörhead
Bomber
Overkill
Ace Of Spades
St. Valentine's Day Massacre
Iron Fist
No Remorse
Orgasmatron


allmusic.com...

Motörhead's overwhelmingly loud and fast style of heavy metal was one of the most groundbreaking sounds the genre had to offer in the late '70s. Though the group's leader, Lemmy Kilmister, had his roots in the hard-rocking space rock band Hawkwind, Motörhead didn't bother with his old group's progressive tendencies, choosing to amplify the heavy biker-rock elements of Hawkwind with the speed of punk rock. Motörhead wasn't punk rock (they formed before the Sex Pistols and they loved the hell-for-leather imagery of bikers too much to conform with the safety-pinned, ripped T-shirts of punk), but they were the first metal band to harness that energy and, in the process, they created speed metal and thrash metal. Unlike many of their contemporaries, Motörhead continued performing into the next century. Although they changed their lineup many, many times -- Lemmy, who passed away in 2015, was their only consistent member -- they never changed their raging sound.


foobar2000 1.4.3 / Dynamic Range Meter 1.1.1
log date: 2021-07-21 19:58:52

--------------------------------------------------------------------------------
Analyzed: Motörhead / This Is Motörhead
--------------------------------------------------------------------------------

DR         Peak         RMS     Duration Track
--------------------------------------------------------------------------------
DR10      -1.94 dB   -14.53 dB      3:12 01-Motörhead
DR11      -1.09 dB   -13.56 dB      2:52 02-Please Don't Touch (With Girlschool)
DR12      -1.69 dB   -15.21 dB      3:33 03-Emergency (With Girlschool)
DR10      -1.00 dB   -13.74 dB      4:13 04-Lost Johnny
DR10      -1.69 dB   -13.68 dB      5:22 05-Iron Horse / Born To Lose
DR10      -2.10 dB   -14.41 dB      4:26 06-The Watcher
DR11      -1.86 dB   -14.65 dB      2:41 07-Stay Clean
DR11      -2.59 dB   -15.32 dB      5:12 08-Overkill
DR11      -0.70 dB   -13.80 dB      2:40 09-No Class
DR11      -1.83 dB   -14.57 dB      3:05 10-Deadmen Tell No Tales
DR12      -1.94 dB   -15.87 dB      4:55 11-Stone Dead Forever
DR12      -2.45 dB   -16.76 dB      3:46 12-Bomber
DR10      -1.71 dB   -13.64 dB      2:46 13-Ace Of Spades
DR11      -1.74 dB   -15.07 dB      3:10 14-(We Are) The Road Crew
DR11      -1.88 dB   -14.22 dB      4:14 15-The Chase Is Better Than The Catch
DR11      -2.02 dB   -14.85 dB      2:54 16-Iron Fist
DR11      -1.90 dB   -15.45 dB      3:04 17-Heart Of Stone
DR12      -0.70 dB   -14.24 dB      3:06 18-(Don't Let 'Em) Grind Ya Down
DR11      -2.18 dB   -15.20 dB      4:38 19-Killed By Death
DR11      -2.67 dB   -15.49 dB      4:27 20-Deaf Forever
DR12      -1.42 dB   -15.03 dB      5:24 21-Orgasmatron

Number of tracks:  21
Official DR value: DR11

Samplerate:        96000 Hz
Channels:          2
Bits per sample:   24
Bitrate:           3137 kbps
Codec:             FLAC




Not my rip. Any questions about the
equipment used can be found in the
lineage text.


Support the artists...
buy it if you like it!

Sharing since 2010
Thanks for Seeding!
Cheers;)
88

  User comments

No comments have been posted yet.


Post anonymous comment
  • Comments need intelligible text (not only emojis or meaningless drivel).
  • No upload requests, visit the forum or message the uploader for this.
  • Use common sense and try to stay on topic.

  • :) :( :D :P :-) B) 8o :? 8) ;) :-* :-( :| O:-D Party Pirates Yuk Facepalm :-@ :o) Pacman Shit Alien eyes Ass Warn Help Bad Love Joystick Boom Eggplant Floppy TV Ghost Note Msg


    CAPTCHA Image 

    Anonymous comments have a moderation delay and show up after 15 minutes

      Sitefriends